<?xml version="1.0" standalone="no"?>
<!DOCTYPE svg PUBLIC "-//W3C//DTD SVG 1.1//EN" "http://www.w3.org/Graphics/SVG/1.1/DTD/svg11.dtd" >
<svg xmlns="http://www.w3.org/2000/svg">
<defs>
  <font id="flaticon" horiz-adv-x="300">
    <font-face font-family="flaticon"
      units-per-em="300" ascent="300"
      descent="0" />
    <missing-glyph horiz-adv-x="0" />
    <glyph glyph-name="001-facebook"
      unicode="&#xF101;"
      horiz-adv-x="300" d="M150 300A150 150 0 1 1 300 150A150 150 0 0 1 150 300zM188.0131578947369 164.2105263157895L185.5263157894737 143.3092105263158A3.9473684210526 3.9473684210526 0 0 0 181.5789473684211 139.796052631579H159.8684210526316V77.8223684210526A2.8026315789474 2.8026315789474 0 0 0 157.1052631578948 75H135A2.8026315789474 2.8026315789474 0 0 0 132.2368421052632 77.8421052631579L132.3552631578948 139.7960526315789H115.9144736842106A3.9473684210526 3.9473684210526 0 0 0 111.9671052631579 143.7434210526316V164.625A3.9473684210526 3.9473684210526 0 0 0 115.9144736842106 168.5723684210526H132.2368421052632V188.8223684210526C132.2368421052632 212.25 146.1907894736843 225 166.5789473684211 225H183.296052631579A3.9473684210526 3.9473684210526 0 0 0 187.2434210526316 221.0526315789474V203.4671052631579A3.9473684210526 3.9473684210526 0 0 0 183.296052631579 199.5197368421053H173.0526315789474C161.9605263157895 199.3421052631579 159.8684210526316 194.0328947368421 159.8684210526316 186.0986842105263V168.6315789473684H184.1842105263158A3.9473684210526 3.9473684210526 0 0 0 188.0131578947369 164.2105263157895z" />
    <glyph glyph-name="002-instagram"
      unicode="&#xF102;"
      horiz-adv-x="300" d="M126.296052631579 150A23.703947368421 23.703947368421 0 0 1 173.7039473684211 150A23.703947368421 23.703947368421 0 0 1 126.296052631579 150M180.3157894736842 209.9013157894737H119.6842105263158A29.6052631578947 29.6052631578947 0 0 1 90.078947368421 180.296052631579V119.6842105263158A29.6052631578947 29.6052631578947 0 0 1 119.6842105263158 90.0789473684211H180.3157894736842A29.6052631578947 29.6052631578947 0 0 1 209.9210526315789 119.6842105263158V180.3157894736842A29.6052631578947 29.6052631578947 0 0 1 180.3157894736842 209.9013157894737zM150 111.1973684210527A38.8026315789474 38.8026315789474 0 1 0 188.7828947368421 150A38.8421052631579 38.8421052631579 0 0 0 150 111.1973684210527zM189.0197368421052 179.2105263157895A9.5921052631579 9.5921052631579 0 1 0 198.5921052631579 188.7828947368422A9.5921052631579 9.5921052631579 0 0 0 189.0197368421052 179.2105263157895zM150 300A150 150 0 1 1 300 150A150 150 0 0 1 150 300zM225 119.6842105263158A44.7236842105263 44.7236842105263 0 0 0 180.3157894736842 75H119.6842105263158A44.7434210526316 44.7434210526316 0 0 0 75 119.6842105263158V180.3157894736842A44.7434210526316 44.7434210526316 0 0 0 119.6842105263158 225H180.3157894736842A44.7434210526316 44.7434210526316 0 0 0 225 180.3157894736842z" />
    <glyph glyph-name="003-linkedin"
      unicode="&#xF103;"
      horiz-adv-x="300" d="M150 300A150 150 0 1 1 300 150A150 150 0 0 1 150 300zM111.8289473684211 80.0723684210526A5.0723684210526 5.0723684210526 0 0 0 106.7565789473684 75H85.2039473684211A5.0526315789474 5.0526315789474 0 0 0 80.1315789473684 80.0723684210526V170.4473684210526A5.0723684210526 5.0723684210526 0 0 0 85.2039473684211 175.5197368421053H106.7565789473684A5.0723684210526 5.0723684210526 0 0 0 111.8289473684211 170.4473684210526zM96.0394736842105 184.0263157894737A20.4868421052632 20.4868421052632 0 1 0 116.4473684210527 204.5328947368421A20.4868421052632 20.4868421052632 0 0 0 95.9802631578947 184.0263157894737zM224.5657894736843 79.6578947368421A4.6578947368421 4.6578947368421 0 0 0 219.9078947368422 75H196.7171052631579A4.6578947368421 4.6578947368421 0 0 0 192.0592105263158 79.6578947368421V122.0526315789474C192.0592105263158 128.3881578947368 193.8947368421053 149.6842105263158 175.5197368421053 149.6842105263158C161.2697368421053 149.6842105263158 158.3684210526316 135.0394736842105 157.7565789473685 128.4671052631578V79.5592105263157A4.6578947368421 4.6578947368421 0 0 0 153.1381578947369 74.9999999999999H130.7565789473685A4.6381578947368 4.6381578947368 0 0 0 126.0986842105264 79.6578947368421V170.8421052631578A4.6578947368421 4.6578947368421 0 0 0 130.7565789473685 175.5197368421052H153.1381578947369A4.6776315789474 4.6776315789474 0 0 0 157.8947368421053 170.8421052631578V162.9473684210526C163.1842105263158 170.8421052631578 171.0394736842106 177.0197368421052 187.7565789473685 177.0197368421052C224.8223684210527 177.0197368421052 224.6052631578948 142.4013157894737 224.6052631578948 123.3947368421052z" />
    <glyph glyph-name="004-youtube"
      unicode="&#xF104;"
      horiz-adv-x="300" d="M132.0592105263158 178.7368421052632L178.8552631578948 150L132.0592105263158 121.2434210526316zM150 300A150 150 0 1 1 300 150A150 150 0 0 1 150 300zM221.4868421052632 113.9013157894737C218.4868421052632 104.6842105263158 208.5592105263158 99.078947368421 199.421052631579 97.796052631579A467.407894736842 467.407894736842 0 0 0 100.5789473684211 97.796052631579C91.4407894736842 99.0789473684211 81.5131578947369 104.6842105263158 78.5131578947369 113.9013157894737A187.3815789473684 187.3815789473684 0 0 0 78.5131578947369 186.0789473684211C81.5131578947369 195.3947368421053 91.4407894736842 200.9013157894737 100.6578947368421 202.1842105263158A467.407894736842 467.407894736842 0 0 0 199.5 202.1842105263158C208.6381578947369 200.9013157894737 218.5657894736843 195.3157894736842 221.5657894736842 186.0789473684211A187.3815789473684 187.3815789473684 0 0 0 221.4868421052632 113.9013157894737z" />
    <glyph glyph-name="005-twitter"
      unicode="&#xF105;"
      horiz-adv-x="300" d="M150 300A150 150 0 1 1 300 150A150 150 0 0 1 150 300zM224.7039473684211 195.3947368421053A63.3355263157895 63.3355263157895 0 0 0 211.8552631578947 181.2828947368421A5.4868421052632 5.4868421052632 0 0 1 209.8815789473684 177V176.5065789473685A89.9605263157895 89.9605263157895 0 0 0 204.0789473684211 145.2039473684211A91.6776315789474 91.6776315789474 0 0 0 187.0065789473684 116.5855263157895A84.3355263157894 84.3355263157894 0 0 0 150 92.1315789473684A92.5657894736842 92.5657894736842 0 0 0 120.9078947368421 87.6118421052632A88.8157894736842 88.8157894736842 0 0 0 76.3026315789473 99.6315789473684A2.5657894736842 2.5657894736842 0 0 0 75.078947368421 102.4736842105263A2.4671052631579 2.4671052631579 0 0 0 77.4868421052631 104.3289473684211H81.2368421052631A59.8223684210526 59.8223684210526 0 0 1 114.6710526315789 114.4736842105263A32.4671052631579 32.4671052631579 0 0 0 89.0131578947368 136.5197368421053A1.6973684210526 1.6973684210526 0 0 0 90.9868421052631 138.7105263157895A29.7631578947368 29.7631578947368 0 0 1 96.4342105263158 138.1973684210527H97.125A32.4078947368421 32.4078947368421 0 0 0 78.2368421052631 168.0197368421053A1.6973684210526 1.6973684210526 0 0 0 80.7434210526316 169.5A28.5 28.5 0 0 1 88.125 166.6381578947369A32.4078947368421 32.4078947368421 0 0 0 82.8947368421053 205.9342105263158A1.6973684210526 1.6973684210526 0 0 0 85.6776315789474 206.1513157894737A84.8684210526316 84.8684210526316 0 0 1 143.9210526315789 175.0263157894737H144.0789473684211A1.2236842105263 1.2236842105263 0 0 1 145.2631578947369 176.3486842105263A34.3223684210526 34.3223684210526 0 0 0 146.0131578947369 188.1907894736842A31.4013157894737 31.4013157894737 0 0 0 167.1315789473685 210.7697368421053A34.7171052631579 34.7171052631579 0 0 0 177.375 212.3486842105263A32.2894736842105 32.2894736842105 0 0 0 198.7697368421053 204.2763157894737A4.1842105263158 4.1842105263158 0 0 1 201.5526315789474 203.2105263157895A4.2434210526316 4.2434210526316 0 0 1 202.5394736842105 203.3486842105263A59.8026315789474 59.8026315789474 0 0 1 218.3289473684211 209.8618421052632A1.6776315789474 1.6776315789474 0 0 0 220.7960526315789 207.8881578947368A32.0328947368421 32.0328947368421 0 0 0 212.2894736842105 194.3289473684211A57.9868421052632 57.9868421052632 0 0 1 222.6315789473684 197.8223684210526A1.6973684210526 1.6973684210526 0 0 0 224.7039473684211 195.3947368421053z" />
    <glyph glyph-name="006-flickr"
      unicode="&#xF106;"
      horiz-adv-x="300" d="M150 281.8359375C77.16796875 281.8359375 18.1640625 222.83203125 18.1640625 150S77.16796875 18.1640625 150 18.1640625S281.8359375 77.16796875 281.8359375 150S222.83203125 281.8359375 150 281.8359375zM109.04296875 117.71484375C91.23046875 117.71484375 76.7578125 132.1875 76.7578125 150S91.23046875 182.28515625 109.04296875 182.28515625S141.328125 167.8125 141.328125 150S126.85546875 117.71484375 109.04296875 117.71484375zM190.95703125 117.71484375C173.14453125 117.71484375 158.671875 132.1875 158.671875 150S173.14453125 182.28515625 190.95703125 182.28515625S223.2421875 167.8125 223.2421875 150S208.76953125 117.71484375 190.95703125 117.71484375z" />
    <glyph glyph-name="007-tiktok"
      unicode="&#xF107;"
      horiz-adv-x="300" d="M150 300C67.1701171875 300 0 232.8298828125 0 150S67.1701171875 0 150 0S300 67.1701171875 300 150S232.8298828125 300 150 300zM225.251953125 185.2306640625V164.9203125C215.6748046875 164.916796875 206.36953125 166.7935546875 197.593359375 170.49609375C191.9501953125 172.878515625 186.692578125 175.9482421875 181.8837890625 179.6578125L182.0279296875 117.1423828125C181.967578125 103.065234375 176.3982421875 89.8388671875 166.318359375 79.876171875C158.115234375 71.766796875 147.720703125 66.6099609375 136.454296875 64.940625C133.80703125 64.5486328125 131.112890625 64.34765625 128.38828125 64.34765625C116.3279296875 64.34765625 104.878125 68.2546875 95.5119140625 75.462890625C93.7494140625 76.819921875 92.063671875 78.2912109375 90.4587890625 79.876171875C79.5345703125 90.6732421875 73.9013671875 105.3064453125 74.85 120.70078125C75.5736328125 132.4189453125 80.265234375 143.59453125 88.086328125 152.3537109375C98.433984375 163.9447265625 112.91015625 170.3783203125 128.38828125 170.3783203125C131.112890625 170.3783203125 133.80703125 170.173828125 136.454296875 169.7818359375V162.2724609375V141.3826171875C133.944140625 142.210546875 131.2634765625 142.6658203125 128.4720703125 142.6658203125C114.3310546875 142.6658203125 102.890625 131.1287109375 103.1021484375 116.9771484375C103.236328125 107.92265625 108.1822265625 100.0078125 115.4771484375 95.644921875C118.90546875 93.594140625 122.8494140625 92.323828125 127.058203125 92.09296875C130.355859375 91.9119140625 133.522265625 92.3712890625 136.454296875 93.3392578125C146.5576171875 96.6767578125 153.84609375 106.1666015625 153.84609375 117.3591796875L153.8794921875 159.22265625V235.65234375H181.8498046875C181.8767578125 232.880859375 182.1580078125 230.1767578125 182.6806640625 227.5564453125C184.791796875 216.950390625 190.7701171875 207.748828125 199.0904296875 201.47578125C206.3455078125001 196.0037109375 215.3794921875 192.7599609375 225.1710937500001 192.7599609375C225.1775390625001 192.7599609375 225.2583984375001 192.7599609375 225.2513671875001 192.76640625V185.2306640625z" />
    <glyph glyph-name="008-right-chevron"
      unicode="&#xF108;"
      horiz-adv-x="300" d="M78.6625 16.1625A12.5 12.5 0 0 0 78.6625 33.8375L194.825 150L78.6625 266.1625A12.5 12.5 0 0 0 96.3375 283.8374999999999L221.3375 158.8375A12.5 12.5 0 0 0 221.3375 141.1625L96.3375 16.1625A12.5 12.5 0 0 0 78.6625 16.1625z" />
    <glyph glyph-name="009-left-chevron"
      unicode="&#xF109;"
      horiz-adv-x="300" d="M203.6625 16.1625L78.6625 141.1625A12.5 12.5 0 0 0 78.6625 158.8375L203.6625 283.8375A12.5 12.5 0 0 0 221.3375 266.1625L105.175 150L221.3375 33.8375A12.5 12.5 0 0 0 203.6625 16.1625z" />
    <glyph glyph-name="010-loupe"
      unicode="&#xF10A;"
      horiz-adv-x="300" d="M296.3344107967696 21.3384634915674L211.0227439185164 106.6501303698206C227.5477778537319 127.0622357203543 237.4974853761194 152.9996777375221 237.4974853761194 181.2492065507173C237.4974853761194 246.7235671526646 184.2228103241179 299.998242204666 118.7484497221707 299.998242204666S0 246.7241530844426 0 181.2497924824953S53.2746750520015 62.5007568285466 118.7490356539487 62.5007568285466C146.9985644671439 62.5007568285466 172.9360064843117 72.4504643509341 193.3481118348454 88.9754982861495L278.6597787130985 3.6638314078963C281.09725490962 1.2263552113748 284.2970283493325 0.001171863556 287.4973877208231 0.001171863556S293.8975205320261 1.2263552113748 296.3349967285476 3.6638314078963C301.2222536889289 8.5510883682776 301.2222536889289 16.4512065311862 296.3344107967696 21.3384634915674zM118.7490356539487 87.5007080008984C67.0493452212381 87.5007080008984 24.9999511723518 129.5501020497847 24.9999511723518 181.2497924824953S67.0493452212381 274.9988769640922 118.7490356539487 274.9988769640922S212.4981201355456 232.9494829152059 212.4981201355456 181.2497924824953S170.4481401548813 87.5007080008984 118.7490356539487 87.5007080008984z" />
    <glyph glyph-name="011-close"
      unicode="&#xF10B;"
      horiz-adv-x="300" d="M15.4679961414791 -0.0007666903917C11.5152733118971 -0.0007666903917 7.5625504823151 1.5023264472535 4.5593845659164 4.5273482320296C-1.469554340836 10.5547884186868 -1.469554340836 20.3267753391094 4.5593845659164 26.3542155257665L273.7515067524116 295.4794198600072C279.780445659164 301.5068600466643 289.5548633440515 301.5068600466643 295.5838022508039 295.4794198600072S301.6127411575563 279.6799927529274 295.5838022508039 273.6487846928608L26.3954479099678 4.5273482320296C23.3696739549839 1.5211619567392 19.4169511254019 -0.0007666903917 15.4679961414791 -0.0007666903917zM15.4679961414791 -0.0007666903917M284.6789594855306 -0.0007666903917C280.7262356913183 -0.0007666903917 276.7772807073955 1.5023264472535 273.7703479099678 4.5273482320296L4.5593845659163 273.6487846928608C-1.4695543408361 279.6799927529274 -1.4695543408361 289.45197967335 4.5593845659163 295.4794198600071S20.3627411575562 301.5068600466643 26.3954479099678 295.4794198600071L295.5838022508039 26.3542155257665C301.6127411575563 20.3267753391094 301.6127411575563 10.5547884186868 295.5838022508039 4.5273482320296C292.5580282958199 1.5211619567392 288.6090733118971 -0.0007666903917 284.6789594855306 -0.0007666903917zM284.6789594855306 -0.0007666903917" />
    <glyph glyph-name="012-whatsapp"
      unicode="&#xF10C;"
      horiz-adv-x="300" d="M150 300C67.1699525390625 300 0 232.8300474609375 0 150S67.1699525390625 0 150 0S300 67.1699525390625 300 150S232.8300474609375 300 150 300zM153.1791685546875 62.6655580078125C153.1768798828125 62.6655580078125 153.1814578125 62.6655580078125 153.1791685546875 62.6655580078125H153.1425474609375C138.116455078125 62.672424609375 123.3512876953125 66.4398193359375 110.2386474609375 73.590087890625L62.6472474609375 61.1091615234375L75.384521484375 107.6179505859375C67.527008203125 121.2272642578125 63.393401953125 136.667633203125 63.4002685546875 152.48565703125C63.4208677734375 201.969909375 103.694915625 242.2279359375 153.1791685546875 242.2279359375C177.19345078125 242.2187806640625 199.73602265625 232.871246484375 216.684723046875 215.9088134765625C233.6357115234375 198.944091796875 242.96493515625 176.3946533203125 242.9557798828125 152.414703515625C242.9351806640625 102.928161328125 202.65655546875 62.6655580078125 153.1791685546875 62.6655580078125zM153.1791685546875 62.6655580078125M153.208923046875 227.069091796875C112.0491029296875 227.069091796875 78.575133984375 193.6088560546875 78.5568234375 152.4787904296875C78.55224609375 138.3842466796875 82.4981689453125 124.658203125 89.9665833984375 112.7815248046875L91.7404171875 109.959411328125L84.2010498046875 82.431793359375L112.4427796875 89.8384095703125L115.1687625 88.222503515625C126.6242982421875 81.42471328125 139.7575376953125 77.8289794921875 153.147125390625 77.8244015625H153.1768798828125C194.3046568359375 77.8244015625 227.77862578125 111.2869265625 227.796936328125 152.419280859375C227.80380234375 172.352600390625 220.0492857421875 191.09344453125 205.96160859375 205.192565625C191.87393203125 219.29168671875 173.1376646484375 227.0622251953125 153.208923046875 227.069091796875zM197.09930390625 120.407867578125C195.229339453125 115.171051171875 186.268616015625 110.389709765625 181.9587708984375 109.7442626953125C178.09295625 109.16748046875 173.204040234375 108.9271546875 167.8298953125001 110.63232421875C164.5706179687501 111.6668701171875 160.3935240234375 113.047027734375 155.0399777343751 115.3564453125C132.5386048828125 125.0701904296875 117.84210234375 147.7203369140625 116.7205810546875 149.217223828125C115.599059765625 150.714111328125 107.5607296875 161.3777162109375 107.5607296875 172.41668671875C107.5607296875 183.453369140625 113.356018359375 188.8801576171875 115.411376953125 191.123199609375C117.4690248046875 193.3685302734375 119.899749609375 193.929290625 121.3943484375 193.929290625C122.8889466796875 193.929290625 124.38583359375 193.9155580078125 125.6927490234375 193.85147109375C127.07061796875 193.78280625 128.9199832031251 194.3756103515625 130.739593359375 190.0016783203125C132.6095578125001 185.5110169921875 137.0956417968751 174.4743345703125 137.656402734375 173.3528138671875C138.2171630859375 172.22900390625 138.590240625 170.9197998046875 137.844085546875 169.422912890625C137.0956417968751 167.926025390625 134.6099853515625 164.6965025390625 132.236480859375 161.753082421875C131.2408447265625 160.5194091796875 129.9430845703125 159.4207763671875 131.252288671875 157.175445703125C132.5592041015625 154.9324037109375 137.0635986328125 147.58758515625 143.7309263671875 141.6412353515625C152.3002623046875 134.001159375 159.5283509765625 131.634521484375 161.77139296875 130.5107115234375C164.0121457031251 129.3891908203125 165.3213503906251 129.5768736328125 166.6305539062501 131.071471875C167.9374693359376 132.568359375 172.2381591796875 137.619781640625 173.732757421875 139.8651123046875C175.2273562500001 142.11044296875 176.7242431640625 141.7350767578125 178.7796023437501 140.98663359375C180.837249609375 140.240478515625 191.8647767578125 134.8136900390625 194.10781875 133.6921693359375C196.3508607421875 132.568359375 197.845458984375 132.0075990234375 198.4062193359376 131.071471875C198.9692689453125 130.1353453125 198.9692689453125 125.64697265625 197.0993039062501 120.407867578125zM197.09930390625 120.407867578125" />
    <glyph glyph-name="013-print"
      unicode="&#xF10D;"
      horiz-adv-x="300" d="M118.7501953125 106.2498046875H181.250390625C184.705078125 106.2498046875 187.5005859375 109.0453125 187.5005859375 112.5S184.705078125 118.7501953125 181.250390625 118.7501953125H118.7501953125C115.2955078125 118.7501953125 112.5 115.9546875 112.5 112.5S115.2955078125 106.2498046875 118.7501953125 106.2498046875zM118.7501953125 81.2501953125H181.250390625C184.705078125 81.2501953125 187.5005859375 84.045703125 187.5005859375 87.500390625S184.7044921875 93.75 181.2498046875 93.75H118.7501953125C115.2955078125 93.75 112.5 90.9544921875 112.5 87.4998046875S115.2955078125 81.2501953125 118.7501953125 81.2501953125zM150 300C67.29140625 300 0 232.70859375 0 150S67.29140625 0 150 0S300 67.29140625 300 150S232.70859375 300 150 300zM212.5001953125 68.7498046875C212.5001953125 65.2951171875 209.7046875 62.499609375 206.25 62.499609375H93.75C90.2953125 62.499609375 87.4998046875 65.2951171875 87.4998046875 68.7498046875V137.5001953125H212.499609375V68.7498046875zM250.0001953125 137.5001953125C250.0001953125 123.7119140625 238.7876953125 112.5 225 112.5V137.5001953125C228.4546875 137.5001953125 231.2501953125 140.295703125 231.2501953125 143.750390625C231.2501953125 147.205078125 228.4546875 150.0005859375 225 150.0005859375H75C71.5453125 150.0005859375 68.7498046875 147.205078125 68.7498046875 143.750390625C68.7498046875 140.295703125 71.5453125 137.5001953125 75 137.5001953125V112.5C61.2123046875 112.5 49.9998046875 123.7119140625 49.9998046875 137.5001953125V175.0001953125C49.9998046875 188.787890625 61.21171875 200.000390625 75 200.000390625H87.4998046875V231.2501953125C87.4998046875 234.7048828125 90.2953125 237.500390625 93.75 237.500390625H206.25C209.7046875 237.500390625 212.5001953125 234.7048828125 212.5001953125 231.2501953125V200.000390625H225C238.7876953125 200.000390625 250.0001953125 188.7884765625 250.0001953125 175.0001953125V137.5001953125zM212.499609375 181.2498046875A6.2501953125 6.2501953125 0 0 1 225 181.2498046875A6.2501953125 6.2501953125 0 0 1 212.499609375 181.2498046875" />
    <glyph glyph-name="014-info-button"
      unicode="&#xF10E;"
      horiz-adv-x="300" d="M256.0751320680885 256.068610187178C197.4955977303855 314.6416226439706 102.5174460314355 314.648144524881 43.9313898128221 256.068610187178C-14.6481445248809 197.489075849475 -14.6416226439705 102.510924150525 43.9313898128221 43.9248679319116C102.510924150525 -14.6416226439705 197.489075849475 -14.648144524881 256.0751320680885 43.9248679319116C314.648144524881 102.510924150525 314.6416226439706 197.4825539685645 256.0751320680885 256.068610187178zM169.5623817909085 84.777929954999C169.5623817909085 73.9711732863758 160.803495728168 65.2122872236353 149.9967390595448 65.2122872236353S130.4310963281811 73.9711732863758 130.4310963281811 84.777929954999V163.0405008804539C130.4310963281811 173.8472575490772 139.1899823909215 182.6061436118176 149.9967390595448 182.6061436118176S169.5623817909085 173.8472575490772 169.5623817909085 163.0405008804539V84.777929954999zM149.6510793712907 196.484706189265C138.3812691580252 196.484706189265 130.8680623491815 204.4674884236614 131.1028500619579 214.3220504793583C130.8680623491815 224.6527098415183 138.3812691580252 232.3941824822279 149.8793452031566 232.3941824822279C161.3839431291985 232.3941824822279 168.6623622252658 224.6461879606079 168.9036718189526 214.3220504793583C168.8971499380421 204.4674884236614 161.3904650101089 196.484706189265 149.6510793712907 196.484706189265z" />
    <glyph glyph-name="015-whatsapp-1"
      unicode="&#xF10F;"
      horiz-adv-x="300" d="M218.8375 121.1625L218.725 120.225C191.2375 133.925 188.3625 135.75 184.8125 130.425C182.35 126.7375 175.175 118.375 173.0125 115.9C170.825 113.4625 168.65 113.275 164.9375 114.9625C161.1875 116.8375 149.15 120.775 134.9 133.525C123.8 143.4625 116.35 155.65 114.15 159.4C110.4875 165.725 118.15 166.625 125.125 179.825C126.375 182.45 125.7375 184.5125 124.8125 186.375C123.875 188.25 116.4125 206.625 113.2875 213.95C110.2875 221.25 107.2 220.325 104.8875 220.325C97.6875 220.95 92.425 220.85 87.7875 216.025C67.6125 193.85 72.7 170.975 89.9625 146.65C123.8875 102.25 141.9625 94.075 175.0125 82.725C183.9375 79.8875 192.075 80.2875 198.5125 81.2125C205.6875 82.35 220.6 90.225 223.7125 99.0375C226.9 107.85 226.9 115.1625 225.9625 116.85C225.0374999999999 118.5375 222.5875 119.475 218.8374999999999 121.1625zM256.5 256.8875C160.3875 349.8 1.325 282.4125 1.2625 151.3375C1.2625 125.1375 8.125 99.5875 21.2 77.025L0 0L79.1875 20.65C178 -32.725 299.95 38.15 300 151.2625C300 190.9625 284.5 228.325 256.3125 256.4zM275.025 151.675C274.95 56.2625 170.2125 -3.3249999999999 87.375 45.375L82.875 48.05L36 35.8625L48.5625 81.425L45.575 86.1125C-5.975 168.1750000000001 53.25 275.425 150.9 275.425C184.075 275.425 215.2125 262.4875 238.6625 239.05C262.1 215.8125 275.025 184.675 275.025 151.675z" />
    <glyph glyph-name="016-phone-call"
      unicode="&#xF110;"
      horiz-adv-x="300" d="M291.8347480725801 79.830231290398L249.9688497780547 121.6961295849233C235.0167432442956 136.6482361186824 209.5981621369052 130.6668094385173 203.6173195234016 111.229655011292C199.1316875632739 97.7721750642473 184.1795810295149 90.2961217973678 170.7226851491317 93.2871271707811C140.8184720816136 100.7631804376607 100.4477844404642 139.6386574254342 92.9717311735846 171.0380811463282C88.4860992134569 184.4955610933728 97.4573631337123 199.4476676271319 110.9142590140955 203.9327155205981C130.3519975079823 209.9135581341017 136.3328401214859 235.3321392414921 121.3807335877268 250.2842457752512L79.5148352932015 292.1501440697765C67.5531500661942 302.6166186434079 49.6106222256834 302.6166186434079 39.144147652052 292.1501440697765L10.7351452379098 263.7411416556344C-17.6738571762324 233.8369285881162 13.7255665446616 154.5907639591933 84.0004672533292 84.3158632505257C154.2753679619967 14.0409625418581 233.5215325909197 -18.8542558990732 263.4257456584378 11.0505412351063L291.83474807258 39.4595436492485C302.3018067128729 51.4212288762557 302.3018067128729 69.3637567167666 291.8347480725801 79.830231290398z" />
    <glyph glyph-name="017-pin"
      unicode="&#xF111;"
      horiz-adv-x="300" d="M150 300A112.64953125 112.64953125 0 0 1 37.5 187.5C37.5 106.734375 142.3125 5.578125 146.765625 1.3125A4.640625 4.640625 0 0 1 153.234375 1.3125C157.6875 5.578125 262.5 106.734375 262.5 187.5A112.64953125 112.64953125 0 0 1 150 300zM150 135.9375A51.5625 51.5625 0 1 0 201.5625 187.5A51.5934375 51.5934375 0 0 0 150 135.9375z" />
    <glyph glyph-name="018-pinterest"
      unicode="&#xF112;"
      horiz-adv-x="300" d="M150.35859375 291.980859375C70.0529296875 291.980859375 4.8046875 227.21302734375 4.8046875 146.78396484375C4.8046875 66.35888671875 70.0529296875 1.5910546875 150.35859375 1.5910546875S295.1953125 66.35888671875 295.1953125 146.78396484375C295.1953125 227.21302734375 230.6640234375 291.980859375 150.35859375 291.980859375zM161.8306640625 107.6390625C151.07560546875 108.35203125 146.7734765625 114.04376953125 138.1693359375 119.0265234375C133.867265625 94.82970703125 128.13123046875 72.05484375 111.63984375 59.9544140625C106.6208203125 96.25166015625 118.80984375 123.29630859375 124.54611328125 152.4798046875C114.50771484375 168.849609375 125.980078125 203.0122265625 146.7734765625 194.47265625C172.586015625 184.5071484375 124.54611328125 131.83974609375 156.811640625 125.4350390625C191.2282617187501 118.317421875 204.8515429687501 184.5071484375 184.0583203125 205.8601171875C153.2262890625 236.465625 95.14845703125 206.5730859375 102.31869140625 162.44525390625C104.469609375 151.76677734375 115.2249609375 148.2099609375 107.3377734375 133.2616406250001C87.26126953125 137.5314257812501 81.525234375 153.19271484375 82.2420703125 173.11974609375C83.6759765625 206.5730859375 112.35662109375 230.06115234375 141.75427734375 233.61779296875C178.321875 237.8875781250001 212.7385546875 220.09541015625 217.040625 185.9330859375001C222.776953125 146.7840234375 200.54923828125 104.7910546875 161.8304882812501 107.63888671875z" />
    <glyph glyph-name="019-medium"
      unicode="&#xF113;"
      horiz-adv-x="300" d="M0 150A150 150 0 0 1 300 150A150 150 0 0 1 0 150M164.5998046875 150C164.5998046875 114.254296875 135.8197265625 85.2767578125 100.3171875 85.2767578125C64.815234375 85.2767578125 36.03515625 114.254296875 36.03515625 150S64.815234375 214.7232421875 100.3177734375 214.7232421875C135.8197265625 214.7232421875 164.5998046875 185.745703125 164.5998046875 150M235.119140625 150C235.119140625 116.3513671875 220.7291015625 89.07421875 202.978125 89.07421875S170.837109375 116.3513671875 170.837109375 150S185.2271484375 210.92578125 202.978125 210.92578125S235.119140625 183.6486328125 235.119140625 150M263.96484375 150C263.96484375 119.85234375 258.903515625 95.412890625 252.6603515625 95.412890625S241.3564453125 119.85234375 241.3564453125 150S246.4166015625 204.587109375 252.6603515625 204.587109375C258.903515625 204.587109375 263.96484375 180.14765625 263.96484375 150" />
    <glyph glyph-name="020-mail"
      unicode="&#xF114;"
      horiz-adv-x="300" d="M176.4181640625 146.8916015625L223.53515625 188.63671875V110.1826171875zM76.46484375 188.63671875V110.18203125L123.5818359375 146.8916015625zM154.662890625 127.616015625C153.3322265625 126.437109375 151.6658203125 125.84765625 150 125.84765625S146.6677734375 126.437109375 145.337109375 127.616015625L134.2880859375 137.4052734375L89.7333984375 102.6919921875H210.2671875L165.7119140625 137.4052734375zM139.14375 151.8919921875L150 142.2732421875L212.1158203125 197.307421875H87.8841796875L139.1373046875 151.897265625C139.1396484375 151.8955078125 139.1419921875 151.89375 139.14375 151.8919921875zM300 150C300 67.2896484375 232.7103515625 0 150 0S0 67.2896484375 0 150C0 232.709765625 67.2896484375 300 150 300S300 232.709765625 300 150zM237.59765625 193.0529296875C237.59765625 203.152734375 229.621875 211.369921875 219.8185546875 211.369921875H80.1814453125C70.378125 211.369921875 62.40234375 203.1533203125 62.40234375 193.0529296875V106.9470703125C62.40234375 101.7 64.5580078125 96.9650390625 68.0009765625 93.6228515625L68.0080078125 93.6158203125C71.1919921875 90.5279296875 75.474609375 88.630078125 80.1814453125 88.630078125H219.81796875C229.6212890625 88.630078125 237.5970703125 96.8466796875 237.5970703125 106.9470703125V193.0529296875z" />
    <glyph glyph-name="021-check"
      unicode="&#xF115;"
      horiz-adv-x="300" d="M114.8754260664685 37.7107690647482C112.0117445750235 34.8246402877698 108.1046844532222 33.2143661870504 104.0461657841314 33.2143661870504S96.0805869932393 34.8246402877698 93.2169055017943 37.7107690647482L6.7314750345567 124.3789345323741C-2.2438250115189 133.3717402877698 -2.2438250115189 147.9541366906475 6.7314750345567 156.9300805755396L17.5607353168938 167.783273381295C26.5388406827518 176.7760791366907 41.0760214376119 176.7760791366907 50.0513214836875 167.783273381295L104.0461657841314 113.6803057553957L249.9480825563895 259.8696043165468C258.9261872042235 268.8624100719425 273.4773924039236 268.8624100719425 282.4386687231832 259.8696043165468L293.2679290055202 249.0164115107914C302.2432290515959 240.0236057553957 302.2432290515959 225.4440201438849 293.2679290055202 216.4652654676259zM114.8754260664685 37.7107690647482" />
    <glyph glyph-name="022-play-button"
      unicode="&#xF116;"
      horiz-adv-x="300" d="M150 300C67.1583984375 300 0 232.8427734375 0 150S67.1583984375 0 150 0S300 67.1572265625 300 150S232.8416015625 300 150 300zM201.84375 142.048828125L126.84375 95.173828125C125.326171875 94.2263671875 123.6005859375 93.75 121.875 93.75C120.31171875 93.75 118.74609375 94.1390625 117.329296875 94.9265625C114.34921875 96.57890625 112.5 99.71484375 112.5 103.125V196.875C112.5 200.28515625 114.34921875 203.42109375 117.329296875 205.0734375C120.309375 206.73515625 123.9533203125 206.634375 126.84375 204.826171875L201.84375 157.951171875C204.58359375 156.234375 206.25 153.2314453125 206.25 150S204.58359375 143.7650390625 201.84375 142.048828125z" />
  </font>
</defs>
</svg>
